#TITLE:Safri Duo;
#SUBTITLE:- The bongo song;
#ARTIST:Unknown artist;
#TITLETRANSLIT:;
#SUBTITLETRANSLIT:;
#ARTISTTRANSLIT:;
#CREDIT:;
#BANNER:;
#BACKGROUND:;
#LYRICSPATH:;
#CDTITLE:;
#MUSIC:Safri Duo - The bongo song.mp3;
#OFFSET:0.000;
#SAMPLESTART:100.000;
#SAMPLELENGTH:12.000;
#SELECTABLE:YES;
#BPMS:0.000=276.020;
#STOPS:;
#BGCHANGES:;
// cache tags:
#FIRSTBEAT:19.500;
#LASTBEAT:286.500;
#SONGFILENAME:Songs/Music V.I.P ^_^/Safri Duo - The bongo song/Safri Duo - The bongo song.sm;
#HASMUSIC:1;
#HASBANNER:0;
#MUSICLENGTH:199.593;
// end cache tags

//---------------dance-single - ----------------
#NOTES:
     dance-single:
     :
     Easy:
     1:
     0.111,0.287,0.175,0.000,0.000,120.000,35.000,0.000,0.000,0.000:
0000
0000
0000
0000
,
0000
0000
0000
0000
,
0000
0000
0000
0000
,
0000
0000
0000
0000
,
0000
0000
0000
0000
0000
0000
0000
0100
,
0000
1000
0100
0000
0010
0101
0000
0000
,
0000
0000
0000
0000
0000
0000
0000
0100
,
0000
1000
0100
0000
0010
0101
0000
0000
,
0000
0000
0000
0000
0000
0000
0000
0100
,
0000
1000
0100
0000
0010
0001
0000
0000
,
0010
0000
0000
0100
0000
0010
0000
0100
,
0000
1000
0100
0000
0010
0101
0000
0000
,
0000
0000
0000
0000
0000
0000
0000
0100
,
0000
1000
0100
0000
0010
0100
0000
0000
,
0100
0000
0000
0100
0000
1010
0000
0101
,
0000
0011
1100
0000
0010
0100
0000
0000
,
0100
0000
0000
0100
0000
1010
0000
0101
,
0000
0011
1100
0000
0010
0101
0000
0010
,
0101
0000
0010
0101
0000
0010
0101
0000
,
0010
0101
0010
0100
1000
0101
0000
0000
,
0000
0000
0000
0000
,
0000
1001
0000
0100
0000
0100
0000
0010
,
0001
0000
0000
0100
0000
0100
0000
0010
,
0001
0000
0000
0100
0000
0100
0000
0010
,
0001
0000
0000
0100
0000
0100
0000
0110
,
0000
0101
1010
0000
0100
0110
0000
0010
,
0001
0000
0000
0100
0000
0100
0000
0010
,
0001
0000
0000
0100
0000
0100
0000
0010
,
0001
0000
0000
0100
0000
0100
0000
0110
,
0000
0101
1010
0000
0100
0110
0000
0010
,
0001
0000
0000
0100
0000
0100
0000
0010
,
0001
0000
0000
0100
0000
0100
0000
0010
,
0001
0000
0000
0100
0000
0100
0000
0110
,
0000
0101
1010
0000
0100
0110
0000
0010
,
0001
0000
0000
0100
0000
0100
0000
0110
,
0000
0101
1010
0000
0100
1001
0000
0000
,
0000
0000
0000
0000
,
0000
0000
0000
0000
,
0000
0000
0000
0000
,
0000
0000
0000
0000
,
0000
0000
0000
0000
,
0000
0000
0000
0000
,
0000
0000
0000
0000
,
0000
0000
0000
0000
,
0000
0000
0000
0000
,
0000
0000
0000
0000
,
0000
0000
0000
0000
,
0000
0000
0000
0000
,
0000
0000
0000
0000
,
0000
0000
0000
0000
,
0000
0000
0000
0000
,
0000
0000
0000
0000
,
0000
0000
0000
0000
,
0000
0000
0000
0000
,
0000
0000
0000
0000
,
0000
0000
0000
0000
,
0000
0000
0000
0000
,
0000
0000
0000
0000
,
0000
0000
0000
0000
,
0000
0000
0000
0000
,
0000
0000
0000
0000
,
0000
0000
0000
0000
,
0000
0000
0000
0000
,
0000
0000
0000
0000
,
0000
0000
0000
0000
,
0000
0000
0000
0000
,
0000
0000
0000
0000
,
0000
0000
0000
0000
,
0000
0000
0000
0000
,
0000
0000
0000
0000
,
0000
0000
0000
0000
,
0000
0000
0000
0000
0000
1100
0000
0000
;
